&title=[X] 人マニア
&artist=原口沙輔 feat.重音テト
&first=0
&des=
&converter_7=miriiaa×HotIceCream
&lv_7=14?
&inote_7=(150){1},,,
{8}
A3/A4/A5/A6/B3/B4/B5/B6/D3/D4/D5/D6/D7/E4/E5f/E6,,8-4[8:1],1-5[8:1],8<4[8:1],1,A8f,,
1b-4[8:1]/2b,,1b/8b-5[8:1],,7b>8-4b[16:3]/8b,,2b,1b,
{16}
1b,,6,4,5,,5,,5/3h[8:1],,5,,5/6h[8:1],,5h[8:1],,
B1/B7/B8/A8,,5,,5/B2/B3/B4/A3,,5,,5/B1/B7/B8/A8,,5,,5h[8:1]/B2/B3/B4/A3,,,,
56,,7,1,8,,8,,8/2h[8:1],,8,,8/4h[8:1],,8,,
8/A3/B2/B3/B4,,8,,8/A6/B5/B6/B7,,8,,8pp2b[8:1]/3,,2v5b[8:1],,,,,,
1bx,,3,5,4,,4,,4/6h[8:1],,4,,4/3h[8:1],,4h[8:1],,
A1/B1/B2/B8,,4,,4/A6/B5/B6/B7,,4,,4/A1/B1/B2/B8,,4,,4h[8:1]/A6/B5/B6/B7,,,,
34,,2,8,1,,1,,1/7h[8:1],,1,,1/4h[8:1],,1,,
1h[8:1]/5bh[8:1],,,,8h[8:1]/3bh[8:1],,,,7v8[8:1]b/4^6[8:1]b,,8/3,,,,,,
{16}7,6,7,6,7,6,7,6,
{24}7,6,7,6,7,6,7,6,7,6,7,6,
{16}7,6,7,6,7,6,7,6,
{24}7,6,7,6,7,6,7,6,7,6,7,6,
{16}27,36,27,36,27,36,27,36,
{24}27,36,27,36,27,36,27,36,27,36,27,36,
{2}Ch[4:3]f,1x-5[8:1],
{4}
A3f/B2/B3/B4,A6f/B5/B6/B7,2h[4:1]/3h[4:1],,
1>5[8:1]*<5[8:1],,8>4[8:1]*<4[8:1],,
4xpp4[4:1],4-1[8:1]*-8[8:1],,7-5v4-2[4:1],
2,1bh[4:1],2V48-6[4:1],,
{8}
,,,,,,1b,,
,,,,,2b,2b,,
6<1[8:1],,3>8[8:1],,5q2[8:1],,4p7[8:1],,
5pp4[8:3],,,,,{24}B3,B2,B1,{8}E1,,
4qq2[8:1]*pp6[8:1],,,,4-8>2[8:1]*-8<6[8:1],,,,
5xqq3[8:1]*pp7[8:1],5x,,,1>4[8:1]*<6[8:1],1x,,,
{16}
3x,1x,8x,6x,6x,8x,1x,3x,3x,1x,8x,6x,6x,8x,1x,3x,
Cf,,,,8,,,1,8w4b[8:1],,8,,A8f,,,,
{8}
1b-4[8:1]/8b-3[8:1],2b/7b,1b-6[8:1]/8b-5[8:1],,1b/8b,,4,,
3,,2,,1h[4:1],,,,
A4/A5/B4/B5/D4/D5/D6/E4/E5f/E6,,A2/B2f/D2/D3/E2/E3,,A8/D1/E1f,,E7f,,
5/6-8[8:1],,3>6[4:1],,6<3[4:1],,5,,
E5f,,6-3-8-5[8:3],6h[8:5],,,,,
4,3,2-7-4-1[8:3],2h[8:5],,,,,
8x,8x,3x-8[8:1]/7x-4[8:1],3x/7x,3x/7x,,1x,1x,
{384}
,,,,,,,,,,,,,,,,,,,,,,,,,,,,,,,,,,,,,,,,,,,,,,,,
E1,,,,,,,,,,,,,,,,,,,,
A8,,,,A1,,,,,,,,,,,,,,,,,
D8,,,,D2,,,,,,,,,,,,,,,,
A7,,,,A2,,,,,,,,,,,,,,,,,
E7,,,,E3,,,,,,,,,,,,,,,,
B6,,,,B3,,,,,,,,,,,,,,,,,
B5,,,,B4,,,,,,,,,,,,,,,,
{8}E5,,1p5[8:1],,
{16}
7h[8:1],,,,3h[8:1]/4h[8:1],,,,5h[8:1]/8h[8:1],,,,6h[8:1]/7h[8:1],,,,
2h[8:1]/8h[8:1],,,,3h[8:1]/5h[8:1],,,,17,,6,6,4x,,3,,
2x,6,4,5,2,4,3,6,{24}4b,5b,4b,{16}5b,,3bh[4:3]/6b-2[8:1],,,,
6b-4[8:1],,,,6bV82[8:1],,,,6b,,,,A3/A4/A5/A6/B3/B4/B5/B6/C/D4/D5/D6/E4/E5f/E6,,,,
{4}
1b/8b,,,4v7<6-4qq2-4<5[4:3],
,,,,
4v7<6-4qq2-4<5b[4:3],,,,
,2-6b[8:1]/8-4[8:1],,,
7-3[1:1],,,,
6bh[2:1],,,,
2-6[1:1],2b,,,
3bh[1:0],1bh[8:1],5v2b[8:1]/7-2b[8:1],A5f,
2x-7[2:1]/3x-6[4:1],,,3-6[4:3],
2-7[4:1],,,2-7[2:1],
3-6[2:1],,,2-7[4:1],
3q6[2:1],,,,
7h[4:1]/8-5[8:1],,3h[4:1]/4-1[8:1],,
7bh[4:1]/8-5b[8:1],,3bh[4:1]/4-1b[8:1],,
{16}
2x,4x,5x,7x,7x,5x,4x,2x,2x,4x,5x,7x,7x,5x,4x,2x,
2h[1:1],,,,B2,B2,B2,B2,B2,B2,B2,B2,B2,,,,
{8}
8b,,,,,,,,3b/B6/D6f/E6,2b/B5/D5f/E5,1b/B4/D4f/E4,8b/B3/D3f/E3,7b/B2/D2f/E2,6b/B1/D1f/E1,5/B8/D8f/E8,,
2h[16:3]/4h[16:3],,5h[32:3]/7h[32:3],,2h[64:3]/4h[64:3],,5h[1:0]/7h[1:0],,
3-1[8:1],,3/6<3[4:1],,3>6[4:1],,4,,
E5f,,3v6<1q5[8:3],3h[8:5],,,,,
6x,6,7<5v2q7>8[8:3],7h[2:1],,,,,
1x,1x,2x-7b[8:1]/6x-3b[8:1],2x/6x,2x/6x,,4x,4x,
{384}
,,,,,,,,,,,,,,,,,,,,,,,,,,,,,,,,,,,,,,,,,,,,,,,,
E5,,,,,,,,,,,,,,,,,,,,
B5,,,,B4,,,,,,,,,,,,,,,,,
B6,,,,B3,,,,,,,,,,,,,,,,
E7,,,,E3,,,,,,,,,,,,,,,,,
A7,,,,A2,,,,,,,,,,,,,,,,
D8,,,,D2,,,,,,,,,,,,,,,,,
A8,,,,A1,,,,,,,,,,,,,,,,
{8}E1,,4p8[8:1]/8q4[8:1],,
{16}
,,,,5x/7x,,,48,4q8[8:1]/8p4[8:1],,,,,,,,
3b,1b,5b,,6,,6,,1b/4bh[8:1],,1b,,5b/8bh[8:1],,5b,,
4>8[8:1],,7,7,4p7[8:1],,6,6,4pp6[8:1],,5,5,4,,,,
7p2[8:1]/8v2[8:1],,16,,78,,,,7bp2b[8:1]/8bv2b[8:1],7b/8b,7b/8b,7b/8b,7b/8b,,,,
{32}1,2,3,4,5,6,7,8,{8}1b/5b,,8/A3/B2/B3/B4,1,1/A6/B5/B6/B7,8,
8/A3/B2/B3/B4,1,1/A6/B5/B6/B7,8,8/A3/B2/B3/B4,1,1v4[8:1]/A6/B5/B6/B7,,
1v6[8:1],,1,,{24}4h[8:3]/A7,E8,B8,B1,E2,A2,E3,B3,B4,,,,
{8},58,6-3[8:1]/7-2[8:1],,,,4v1-7[4:5],,
{1}1bh[1:2],,
{24}
5,6,7,8,1,2,35,6,7,8,1,2,3/A5f,,,,,,4,3,2,1,8,7,
46,3,2,1,8,7,46,3,2,1,8,7,{16}6/A4f,,,37,,,28,,
{8}
A6/B5f/B6/B7,A3/B2/B3/B4f,B1/B8/D1f/E1,,7h[4:5],,E5,Ch[1:1],
,B2,B3,B4,B5,B6,B7,A1/A4/A5/A8/B1/B8/D1/D5/E1,
